Alvin.and.the.Chipmunks.Chip.Wrecked.2011.DvDRip.Xvid.ROsub- - 12 Februarie 2012 - Descarca Filme 2010 download filme 2010 free gratis full - WwW.OnlyFRee.UcoZ.Com
Luni, 05-12-2016, 11.28.46
free world
Meniu site
Mini-chat
Statistici

Total online: 1
Vizitatori: 1
Utilizatori: 0
Acasă » 2012 » Februarie » 12 » Alvin.and.the.Chipmunks.Chip.Wrecked.2011.DvDRip.Xvid.ROsub-
11.29.08
Alvin.and.the.Chipmunks.Chip.Wrecked.2011.DvDRip.Xvid.ROsub-




Stars: Justin Long, Matthew Gray Gubler and Jesse McCartney
Country: USA
Language: English
Release Date: 16 December 2011 (USA)
Also Known As: Alvin and the Chipmunks
Filming Locations: Carnival Dream, Carnival Cruise Line, Port Canaveral, Florida, USA

Video
ID                                       : 0
Format                                   : MPEG-4 Visual
Format profile                           : Advanced Simple@L5
Format settings, BVOP                    : 2
Format settings, QPel                    : No
Format settings, GMC                     : No warppoints
Format settings, Matrix                  : Default (H.263)
Muxing mode                              : Packed bitstream
Codec ID                                 : XVID
Codec ID/Hint                            : XviD
Duration                                 : 1h 23mn
Bit rate                                 : 1 039 Kbps
Width                                    : 640 pixels
Height                                   : 346 pixels
Display aspect ratio                     : 1.850
Frame rate                               : 25.000 fps
Color space                              : YUV
Chroma subsampling                       : 4:2:0
Bit depth                                : 8 bits
Scan type                                : Progressive
Compression mode                         : Lossy
Bits/(Pixel*Frame)                       : 0.188
Stream size                              : 621 MiB (88%)
Writing library                          : XviD 64

Audio
ID                                       : 1
Format                                   : MPEG Audio
Format version                           : Version 1
Format profile                           : Layer 3
Mode                                     : Joint stereo
Mode extension                           : MS Stereo
Codec ID                                 : 55
Codec ID/Hint                            : MP3
Duration                                 : 1h 23mn
Bit rate mode                            : Variable
Bit rate                                 : 128 Kbps
Channel(s)                               : 2 channels
Sampling rate                            : 48.0 KHz
Compression mode                         : Lossy
Stream size                              : 77.1 MiB (11%)
Alignment                                : Aligned on interleaves
Interleave, duration                     : 24 ms (0.60 video frame)
Interleave, preload duration             : 143 ms
Writing library                          : LAME3.90.
Encoding settings                        : -m j -V 4 -q 2 -lowpass 17.6 --abr 128


RO plot: Masculii si femelele de veverita – Alvin, Simon si Theodore si respectiv Jeanette, Eleanor si Brittany – se imbarca
impreuna cu noul lor manager Dave Seville pe un vapor de croaziara cu scopul de a ajunge intr-o localitate in care trebuie
sa sustina un concert, transformand instantaneu puntea ambarcatiunii de lux intr-un teren de joaca si generand atat de mult
haos incat prietenul lor Dave nu mai stie cum sa procedeze pentru a-i tine in frau si a-i impiedica sa ruineze vacanta
tuturor calatorilor. Cele sase veverite isi petrec timpul liber facand ceea ce stiu ele mai bine adica sa cante, sa danseze
si sa comita tot soiul de ghidusii, dar atunci cand se aventureaza pe o insula pustie au ghinionul de a ramane blocate acolo,
imprietenindu-se insa cu un pasager clandestin de pe vapor care le este de mare ajutor in tentativa lor de a gasi o
modalitate de a se intoarce in siguranta acasa. In vreme ce buclucasele veverite cauta drumul de intoarcere si descopera ca
insula pe care sunt prizoniere nu este pustie asa cum au crezut la inceput, Dave Seville face tot ceea ce ii sta in putinta
pentru a-si recupera prietenii disparuti.


Vizualizări: 1321 | Adăugat de: bycosmin | Tag-uri: Alvin.and.the.Chipmunks.Chip.Wrecke | Rating: 0.0/0
Doar utilizatorii înregistraţi pot adăuga comentarii
[ Înregistrare | Autentificare ]
Autentificare
Căutare
Calendar
«  Februarie 2012  »
LnMrMrcJoiVnSaDm
  12345
6789101112
13141516171819
20212223242526
272829
Arhiva materialelor
Prietenii site-ului
  • Creaţi un website gratuit
  • Forumul Comunității uCoz
  • Manualul uCoz
  • Tutoriale Video
  • Magazinul oficial cu Șabloane
  • Cele mai bune exemple de website-uri
  • Copyright OnLyFRee.UcoZ.COM  Jocuri,Filme,Muzica,Programe,Gratis ,download © 2016