The Heavy 2010 DVDRiP+Subtitrare - 20 Decembrie 2010 - Descarca Filme 2010 download filme 2010 free gratis full - WwW.OnlyFRee.UcoZ.Com
Luni, 05-12-2016, 11.24.38
free world
Meniu site
Mini-chat
Statistici

Total online: 1
Vizitatori: 1
Utilizatori: 0
Acasă » 2010 » Decembrie » 20 » The Heavy 2010 DVDRiP+Subtitrare
10.48.12
The Heavy 2010 DVDRiP+Subtitrare









Genre : Thriller
Infomation
Video

Codec ID/Hint : XviD
Duration : 1h 41mn
Bit rate : 849 Kbps
Width : 624 pixels
Height : 336 pixels
Display aspect ratio : 1.857
Frame rate : 23.976 fps
Color space : YUV
Chroma subsampling : 4:2:0
Bit depth : 8 bits
Scan type : Progressive
Bits/(Pixel*Frame) : 0.169
Stream size : 617 MiB (88%)
Writing library : XviD 57

Codec ID/Hint : MP3
Duration : 1h 41mn
Bit rate mode : Variable
Bit rate : 104 Kbps
Nominal bit rate : 112 Kbps
Channel(s) : 2 channels
Sampling rate : 48.0 KHz
Stream size : 75.2 MiB (11%)
Alignment : Aligned on interleaves
Interleave, duration : 24 ms (0.58 video frame)
Interleave, preload duration : 177 ms
Writing library : LAME3.97
Encoding settings : -m j -V 4 -q 2 -lowpass 16 --abr 112










Vizualizări: 327 | Adăugat de: bycosmin | Tag-uri: descarca The Heavy 2010 DVDRiP+Subt, download The Heavy 2010 DVDRiP+Subt | Rating: 0.0/0
Doar utilizatorii înregistraţi pot adăuga comentarii
[ Înregistrare | Autentificare ]
Autentificare
Căutare
Calendar
«  Decembrie 2010  »
LnMrMrcJoiVnSaDm
  12345
6789101112
13141516171819
20212223242526
2728293031
Arhiva materialelor
Prietenii site-ului
  • Creaţi un website gratuit
  • Forumul Comunității uCoz
  • Manualul uCoz
  • Tutoriale Video
  • Magazinul oficial cu Șabloane
  • Cele mai bune exemple de website-uri
  • Copyright OnLyFRee.UcoZ.COM  Jocuri,Filme,Muzica,Programe,Gratis ,download © 2016