Bine ati venit Vizitator • Inregistrare • Login
Vineri, 15.12.2017
Piese Pc de la 1 ron(Click)
Principala » 2010 » Decembrie » 20 » The Heavy 2010 DVDRiP+Subtitrare
10.48.12
The Heavy 2010 DVDRiP+Subtitrare









Genre : Thriller
Infomation
Video

Codec ID/Hint : XviD
Duration : 1h 41mn
Bit rate : 849 Kbps
Width : 624 pixels
Height : 336 pixels
Display aspect ratio : 1.857
Frame rate : 23.976 fps
Color space : YUV
Chroma subsampling : 4:2:0
Bit depth : 8 bits
Scan type : Progressive
Bits/(Pixel*Frame) : 0.169
Stream size : 617 MiB (88%)
Writing library : XviD 57

Codec ID/Hint : MP3
Duration : 1h 41mn
Bit rate mode : Variable
Bit rate : 104 Kbps
Nominal bit rate : 112 Kbps
Channel(s) : 2 channels
Sampling rate : 48.0 KHz
Stream size : 75.2 MiB (11%)
Alignment : Aligned on interleaves
Interleave, duration : 24 ms (0.58 video frame)
Interleave, preload duration : 177 ms
Writing library : LAME3.97
Encoding settings : -m j -V 4 -q 2 -lowpass 16 --abr 112










Vizualizari: 366 | Adaugat de: bycosmin | Tags: descarca The Heavy 2010 DVDRiP+Subt, download The Heavy 2010 DVDRiP+Subt | Raging: 0.0/0
Doar utilizatorii inregistrati pot comenta
[ Inregistrare | Login ]