Pariu.cu.viata.Ep.1.Xvid.720p HD - Pariu cu Viata Episoade - Muzica si Filme online gratis,descarca filme - WwW.OnlyFRee.UcoZ.Com
Joi, 08-12-2016, 3.08.51
free world
Meniu site
Categoriile secţiunii
Filme Online [0]
Cele Mai Noi Filme Online 2010
Jocuri Java [24]Muzica noua 2010 [36]
cea mai noua muzica doar aici www.onlyfree.ucoz.com
Filme Online [72]
Cele Mai Noi Filme Online 2010
Pariu cu Viata Episoade [5]Pariu cu Viata Episoade [0]
Mini-chat
Statistici

Total online: 1
Vizitatori: 1
Utilizatori: 0
Acasă » Fişiere » Pariu cu Viata Episoade

Pariu.cu.viata.Ep.1.Xvid.720p HD
24-10-2011, 9.09.24


Descarca Acum Episodul 1


Format                                   : MPEG-4
Format profile                           : Base Media
Codec ID                                 : isom
File size                                : 766 MiB
Duration                                 : 1h 22mn
Overall bit rate mode                    : Variable
Overall bit rate                         : 1 296 Kbps
Writing application                      : Lavf52.91.0

Video
ID                                       : 1
Format                                   : MPEG-4 Visual
Format profile                           : Simple@L1
Format settings, BVOP                    : No
Format settings, QPel                    : No
Format settings, GMC                     : No warppoints
Format settings, Matrix                  : Default (H.263)
Codec ID                                 : 20
Duration                                 : 1h 22mn
Bit rate                                 : 1 196 Kbps
Width                                    : 720 pixels
Height                                   : 480 pixels
Display aspect ratio                     : 3:2
Frame rate mode                          : Constant
Frame rate                               : 25.000 fps
Standard                                 : NTSC
Color space                              : YUV
Chroma subsampling                       : 4:2:0
Bit depth                                : 8 bits
Scan type                                : Progressive
Compression mode                         : Lossy
Bits/(Pixel*Frame)                       : 0.138
Stream size                              : 707 MiB (92%)
Writing library                          : Lavc52.101.0

Audio
ID                                       : 2
Format                                   : AAC
Format/Info                              : Advanced Audio Codec
Format profile                           : LC
Codec ID                                 : 40
Duration                                 : 1h 22mn
Bit rate mode                            : Variable
Bit rate                                 : 96.0 Kbps
Channel(s)                               : 2 channels
Channel positions                        : Front: L R
Sampling rate                            : 44.1 KHz
Compression mode                         : Lossy
Stream size                              : 56.7 MiB (7%)
Categorie: Pariu cu Viata Episoade | Adăugat de: bycosmin | Tag-uri: Pariu.cu.viata.Ep.1.Xvid.720p, descarca Acum PAriu cu viata toate
Vizualizări: 618 | Descărcări: 0 | Rating: 0.0/0
Doar utilizatorii înregistraţi pot adăuga comentarii
[ Înregistrare | Autentificare ]
Autentificare
Căutare
Prietenii site-ului
  • Creaţi un website gratuit
  • Forumul Comunității uCoz
  • Manualul uCoz
  • Tutoriale Video
  • Magazinul oficial cu Șabloane
  • Cele mai bune exemple de website-uri
  • Copyright OnLyFRee.UcoZ.COM  Jocuri,Filme,Muzica,Programe,Gratis ,download © 2016