Pariu Cu Viata episodul 3 - Pariu cu Viata Episoade - Muzica si Filme online gratis,descarca filme - WwW.OnlyFRee.UcoZ.Com
Vineri, 02-12-2016, 10.48.48
free world
Meniu site
Categoriile secţiunii
Filme Online [0]
Cele Mai Noi Filme Online 2010
Jocuri Java [24]Muzica noua 2010 [36]
cea mai noua muzica doar aici www.onlyfree.ucoz.com
Filme Online [72]
Cele Mai Noi Filme Online 2010
Pariu cu Viata Episoade [5]Pariu cu Viata Episoade [0]
Mini-chat
Statistici

Total online: 1
Vizitatori: 1
Utilizatori: 0
Acasă » Fişiere » Pariu cu Viata Episoade

Pariu Cu Viata episodul 3
24-10-2011, 9.30.25

Descarca Acum Pariu cu viata episodul 3



General
Complete name                            : Pariu.cu.Viata.Ep.3 XviD.720p

Format                                   : AVI
Format/Info                              : Audio Video Interleave
File size                                : 901 MiB
Duration                                 : 1h 33mn
Overall bit rate                         : 1 342 Kbps
Writing application                      : Lavf52.91.0

Video
ID                                       : 0
Format                                   : MPEG-4 Visual
Codec ID                                 : MP43
Codec ID/Info                            : Microsoft MPEG-4 v3 (pre-standard)
Codec ID/Hint                            : Microsoft
Duration                                 : 1h 33mn
Bit rate                                 : 1 201 Kbps
Width                                    : 720 pixels
Height                                   : 480 pixels
Display aspect ratio                     : 3:2
Frame rate                               : 25.000 fps
Standard                                 : NTSC
Compression mode                         : Lossy
Bits/(Pixel*Frame)                       : 0.139
Stream size                              : 807 MiB (90%)

Audio
ID                                       : 1
Format                                   : MPEG Audio
Format version                           : Version 1
Format profile                           : Layer 3
Mode                                     : Joint stereo
Mode extension                           : MS Stereo
Codec ID                                 : 55
Codec ID/Hint                            : MP3
Duration                                 : 1h 33mn
Bit rate mode                            : Constant
Bit rate                                 : 128 Kbps
Channel(s)                               : 2 channels
Sampling rate                            : 44.1 KHz
Compression mode                         : Lossy
Stream size                              : 85.9 MiB (10%)
Alignment                                : Aligned on interleaves
Interleave, duration                     : 26 ms (0.65 video frame)
Categorie: Pariu cu Viata Episoade | Adăugat de: bycosmin | Tag-uri: descarca pariu cu viata episodul 3, gratis pariu cu viata toate episoad, pariu cu viata protv
Vizualizări: 559 | Descărcări: 0 | Rating: 0.0/0
Doar utilizatorii înregistraţi pot adăuga comentarii
[ Înregistrare | Autentificare ]
Autentificare
Căutare
Prietenii site-ului
  • Creaţi un website gratuit
  • Forumul Comunității uCoz
  • Manualul uCoz
  • Tutoriale Video
  • Magazinul oficial cu Șabloane
  • Cele mai bune exemple de website-uri
  • Copyright OnLyFRee.UcoZ.COM  Jocuri,Filme,Muzica,Programe,Gratis ,download © 2016