Bine ati venit Vizitator • Inregistrare • Login
Joi, 23.11.2017
Piese Pc de la 1 ron(Click)
Principala » fisiere » Pariu cu Viata Episoade

Pariu Cu viata Episodul 5
24-10-2011, 9.57.48


Descarca Acum Pariu Cu Viata Episodul 5



General
Complete name                            : Pariu.cu.Viata.Ep.5.XviD.720p-RT
Format                                   : AVI
Format/Info                              : Audio Video Interleave
File size                                : 901 MiB
Duration                                 : 1h 33mn
Overall bit rate                         : 1 342 Kbps
Writing application                      : Lavf52.91.0

Video
ID                                       : 0
Format                                   : MPEG-4 Visual
Codec ID                                 : MP43
Codec ID/Info                            : Microsoft MPEG-4 v3 (pre-standard)
Codec ID/Hint                            : Microsoft
Duration                                 : 1h 33mn
Bit rate                                 : 1 201 Kbps
Width                                    : 720 pixels
Height                                   : 480 pixels
Display aspect ratio                     : 3:2
Frame rate                               : 25.000 fps
Standard                                 : NTSC
Compression mode                         : Lossy
Bits/(Pixel*Frame)                       : 0.139
Stream size                              : 807 MiB (90%)

Audio
ID                                       : 1
Format                                   : MPEG Audio
Format version                           : Version 1
Format profile                           : Layer 3
Mode                                     : Joint stereo
Mode extension                           : MS Stereo
Codec ID                                 : 55
Codec ID/Hint                            : MP3
Duration                                 : 1h 33mn
Bit rate mode                            : Constant
Bit rate                                 : 128 Kbps
Channel(s)                               : 2 channels
Sampling rate                            : 44.1 KHz
Compression mode                         : Lossy
Stream size                              : 85.9 MiB (10%)
Alignment                                : Aligned on interleaves
Interleave, duration                     : 26 ms (0.65 video frame)
Categorie: Pariu cu Viata Episoade | Adaugat de: bycosmin | Tags: pariu cu viata gratis download, vezi online serialul pariu cu viata
Vizualizari: 707 | Downloads: 0 | Raging: 0.0/0
Doar utilizatorii inregistrati pot comenta
[ Inregistrare | Login ]